#TITLE:To The Light;
#SUBTITLE:- Star Ocean EX;
#ARTIST:Amika Hattan;
#TITLETRANSLIT:;
#SUBTITLETRANSLIT:;
#ARTISTTRANSLIT:Hamika Hattan;
#CREDIT:True Ancestor;
#BANNER:staroceanbanner.png;
#BACKGROUND:starocean1.png;
#LYRICSPATH:;
#CDTITLE:trueancestor.png;
#MUSIC:To The Light (TV Size).mp3;
#OFFSET:-0.300;
#SAMPLESTART:42.260;
#SAMPLELENGTH:23.100;
#SELECTABLE:YES;
#BPMS:0.000=126.020;
#STOPS:;
#BGCHANGES:0.000=Star Ocean Opening.avi=1.000=0=0=0,
188.000=starocean1.png=1.000=0=0=1,
99999=-nosongbg-=1.000=0=0=0 // don't automatically add -songbackground-
;
// cache tags:
#FIRSTBEAT:0.500;
#LASTBEAT:188.000;
#SONGFILENAME:songs/Otaku's Dream 3rd Anime Mix/[TrueAncestor] To The Light - Star Ocean EX OP/To The Light.sm;
#HASMUSIC:1;
#HASBANNER:1;
#MUSICLENGTH:93.575;
// end cache tags

//---------------dance-single - ----------------
#NOTES:
     dance-single:
     :
     Challenge:
     10:
     1.000,1.000,1.000,1.000,1.000,484.000,160.000,140.000,0.000,0.000:

0000
0000
0200
0000
0310
0100
1000
0001
0000
1100
0020
0000
0130
2000
0000
3001
,
0100
1000
0200
0000
0310
0100
0001
1000
0000
0101
0020
0000
0130
2000
0000
3100
,
1000
0001
0200
0000
0310
0001
0100
0001
0000
1100
0020
0000
0031
0200
0000
1300
,
0010
0100
2000
0000
3001
0100
0010
0100
0000
1010
0200
0000
0301
2000
0000
3100
,
0010
0100
0002
0000
1003
0100
1000
0010
0000
0101
0020
0000
1030
0200
0000
1300
,
0100
0010
0200
0000
0310
0001
0010
0000
0200
0020
0000
0330
1000
0001
1000
0000
,
0011
0000
0100
0010
0100
1000
0001
0000
0002
0200
0000
0303
0010
0001
0010
0000
,
0100
0010
0100
0010
0000
2200
0000
3300
1000
0100
1000
0000
0200
0000
0320
0000
,
0230
0000
0302
0003
1100
0000
1001
0000
0110
0000
0011
0000
1100
0000
0011
0000
,
1100
0000
0110
0000
0010
0100
0001
0000
0200
0020
0000
0330
1000
0010
1000
0000
,
0101
0000
1000
0001
0100
0010
1000
0000
0002
0200
0000
0303
1000
0001
0010
0000
,
0100
0010
2000
0000
0000
0020
0000
3030
0101
0000
1010
0000
0101
0000
1001
0000
,
1100
0000
2020
0000
0000
3030
0220
0000
0000
0330
0022
0030
1003
0100
0010
0000
,
1001
0120
1000
0130
1010
0102
0100
0013
,
1001
0201
0010
0301
0110
1200
0010
1300
,
0001
1000
0001
0000
1100
0000
0011
0000
0110
0000
1010
0000
0100
0001
0010
0000
,
1100
0000
2002
0000
3003
0220
0000
0330
2002
0000
0000
3003
1000
0100
1000
0000
,
0001
0100
0010
0000
1010
0000
0101
0000
0100
0010
0100
0000
1000
0100
1000
0000
,
0001
0100
0001
0000
0100
1000
0000
0010
0100
0000
1010
0000
0010
0001
0000
0010
,
0001
0010
0100
0000
1000
0100
1000
0000
0001
0100
0001
0000
0100
0010
0100
0000
,
1000
0001
2010
0000
0000
3010
0201
0000
0000
1300
0120
0000
0000
0130
2002
0000
,
0000
3003
0100
0010
0100
1000
0100
0001
0100
0001
0100
0010
0100
1000
2002
0000
,
0000
3003
0101
0000
0010
0100
0000
1100
0000
0011
0000
1100
0000
0100
0010
0000
,
1000
0100
0001
0000
0010
0100
0000
1100
0000
0011
0000
0101
0000
1000
0100
1000
,
0100
0010
0011
0000
0100
0010
0000
1010
0000
1001
0000
1100
0000
0100
0010
0000
,
0001
1000
0010
0000
0100
1000
0000
0101
0000
1010
0000
0101
0000
0010
0100
1000
,
0001
0010
1100
0000
0010
0100
0000
1010
0000
0101
0000
0110
0000
0010
0100
0000
,
0100
1000
0001
0000
0010
0100
0000
1001
0000
0011
0000
0110
0000
0010
0001
0010
,
0100
1000
0101
0000
1000
0100
0000
1010
0000
0110
0000
0110
0000
1000
0010
0000
,
0100
0001
1000
0000
1010
0000
0101
0000
0110
0000
0100
1000
0001
1000
0001
1000
,
0001
1000
1001
0000
1000
0100
0000
0011
0000
1100
0000
0011
0000
0100
0010
0000
,
0010
1000
0001
0000
0001
0010
0000
1100
0000
0101
0000
1100
0000
0010
1000
0001
,
0100
0001
1010
0000
0100
0001
0000
0101
0000
0011
0000
1001
0000
0100
1000
0000
,
0100
0010
0001
0000
0001
0100
0000
1010
0000
0110
0000
0101
0000
0010
0001
0100
,
0010
1000
1100
0000
0010
0100
0000
0101
0000
0110
0000
1100
0000
0100
0010
0000
,
0001
0010
0100
0000
0100
0001
0000
1010
0000
0101
0000
1001
0000
0001
1000
0001
,
1000
0010
0110
0000
0010
0100
0000
1100
0000
0011
0000
1001
0000
0100
0001
0000
,
1000
0010
0021
0000
0130
0000
2100
0000
3010
0000
0201
0000
1300
0000
1002
0000
,
0013
0000
1001
0100
0010
0100
0010
1000
0001
0100
0010
1000
0100
1000
0010
0001
,
0010
0100
1010
0000
0100
0000
1001
0000
0100
0000
1010
0000
0001
0000
1100
0000
,
0010
0101
0001
1100
0010
0110
1000
1001
,
0100
0011
0100
1001
0100
1010
0001
0101
,
0010
0000
0000
0000
0110
0000
0000
0000
0001
0000
0000
0000
1100
0000
0000
0000
1000
0000
0000
0000
0101
0000
0000
0000
1000
0100
1000
0100
1000
0000
0000
0000
,
0001
0000
0000
0000
2200
3300
0220
0000
0330
0000
0022
0033
0220
0000
0330
0000
2002
3003
2020
0000
3030
0000
0022
0033
2020
0000
3030
0000
2020
3030
2200
0000
,
3300
0000
0202
0303
0220
0000
0330
0000
0202
0303
0022
0000
0033
0000
2020
3030
0022
0000
0033
0000
2200
3300
0220
0000
0330
0000
0022
0033
0202
0000
0303
0000
,
2200
3300
0220
0000
0330
0000
2002
3003
2020
0000
3030
0000
0022
0033
0202
0000
0303
0000
0220
0330
2020
0000
3030
0000
2002
3003
2020
0000
3030
0000
0220
0330
,
0202
0000
0303
0000
2002
3003
0202
0000
0303
0000
2020
3030
0220
0000
0330
0000
2002
3003
2020
0000
3030
0000
0200
0000
0302
0000
2003
0000
3200
0000
0320
0030
,
0110
0000
0000
0000
;

//---------------dance-single - ----------------
#NOTES:
     dance-single:
     :
     Hard:
     9:
     0.776,1.000,0.460,1.000,0.305,353.000,43.000,112.000,0.000,0.000:





0000
0000
1000
0000
0001
0000
1000
0002
0000
0003
0010
0000
0001
1000
0000
0100
,
0010
0000
0100
0000
1000
0000
0001
0020
0000
0030
1000
0000
0100
0010
0000
0100
,
0001
0000
1000
0000
0100
0000
1000
0020
0000
0030
0100
0000
0001
0100
0000
0010
,
0100
0000
1000
0000
0001
0000
0100
0002
0000
0003
0001
0000
0100
0001
0000
1000
,
0010
0000
0100
0000
1000
0000
0001
2000
0000
3000
0010
0000
0100
0010
0000
1000
,
0001
1000
0001
0000
0010
0000
0100
0000
1000
0001
0000
0000
1000
0000
0001
0000
,
0100
0000
1000
0000
0010
0100
0010
0000
1000
0001
0000
0000
0100
0000
0010
0000
,
0010
0001
0010
0000
0000
0011
0000
0000
1000
0100
1000
0000
0100
0000
1000
0000
,
0100
0220
0300
0031
2000
0002
0000
3003
,
0000
1000
0100
0000
0010
0000
0100
0000
0010
0001
0000
0000
1000
0000
0100
0000
,
1000
0000
0010
0100
0010
0100
0010
0000
1000
0001
0000
0000
0010
0000
0100
0000
,
0010
0000
0100
0000
0000
0110
0000
0000
1000
0000
0100
0000
1000
0000
0001
0000
,
0100
0011
0000
1001
0000
1100
0010
0100
,
1000
0200
0000
1300
0001
0020
0000
0031
,
1000
0200
0000
1300
0001
0100
0010
0100
,
1000
0000
0001
0000
1000
0000
0100
0000
0001
0000
0100
0000
0010
0001
0010
0000
,
0100
0000
0010
0000
0000
1100
0000
0000
0202
0000
0303
0000
1000
0000
0100
0000
,
0001
1100
0000
0011
0000
0110
0010
0100
,
0001
0000
0100
0000
0000
0110
0000
0000
2002
0000
0000
3003
0001
0000
1000
0000
,
0010
0000
0100
0000
0000
1010
0000
0000
0001
0000
1000
0000
0000
0101
0000
0000
,
1000
0000
0220
0000
0000
0330
0202
0000
0000
0303
2020
0000
0000
3030
0022
0000
,
0000
0033
0100
0000
0010
0000
1000
0000
0001
0000
1000
0001
1000
0001
0020
0000
,
0000
0030
0202
0000
0300
0000
0013
0000
1000
0002
0000
0000
0003
0000
0010
0000
,
0010
0000
0010
0000
0100
0000
0100
0000
1000
0010
0000
0000
0200
0000
0000
0300
,
0000
0000
2020
0000
0030
0000
3010
0000
1000
0001
0000
0000
0100
0000
0010
0000
,
0100
0000
1000
0000
0000
0101
0000
0000
0100
0000
0001
0000
0001
0000
0001
0000
,
1000
0000
1000
0000
0000
1001
0000
0000
0100
0000
1000
0000
0001
0000
0100
0000
,
0010
0100
0000
0000
1000
0000
1000
0000
0001
0000
0100
0000
0000
0011
0000
0000
,
1000
0001
0000
1100
0000
0110
0000
0110
,
0000
0000
1001
0000
0000
0011
0000
0000
1100
0000
0100
0000
1000
0000
0100
0000
,
0010
0000
2020
0000
0000
0030
3001
0000
0010
0200
0000
0000
0300
0000
1000
0000
,
0010
0100
0000
0000
0100
0000
0010
0000
0100
0001
0000
0000
2000
0000
0000
3000
,
0000
0000
0010
0000
0100
0000
0010
0000
0100
1000
0000
0000
0001
0000
0100
0000
,
0010
0000
0100
0000
0000
1010
0000
0000
0001
0000
0100
0000
0100
0000
0010
0000
,
0010
0000
0001
0000
1000
0000
0100
0000
0010
0001
0000
0000
0001
0000
0010
0000
,
0100
1000
0100
0000
0000
0110
0000
0000
0100
0000
1000
0000
0100
0000
0010
0000
,
1000
0010
1000
0000
0020
0002
0000
0033
1000
0000
0001
0000
2000
0002
0000
3003
,
0100
0010
1000
0100
0010
0100
0001
0100
,
0010
0000
1000
0000
0100
0000
0010
0000
0001
0000
0010
0000
1000
0000
0001
0010
,
0100
1000
0002
0003
2000
3000
0002
0003
2000
3000
0200
0300
2000
3000
0020
0030
,
0002
0003
0020
0030
2000
3000
0200
0300
2000
3000
0020
0030
0200
0300
0020
0030
,
0200
0300
0002
0003
0200
0300
2000
3000
0020
0030
2000
3000
0002
0003
2000
3000
,
0002
0003
0200
0300
0002
0003
0200
0300
0020
0030
0002
0003
0002
0203
2300
3000
,
0220
0330
0022
0033
0200
0300
0200
0300
2000
3000
2020
3030
0002
0003
0002
0003
,
0200
0300
2200
3300
0020
0030
0020
0030
2000
3000
2002
3003
0200
0300
0200
0300
,
0020
0030
2020
3030
0002
0003
0002
0003
0020
0030
0022
0033
0200
0300
0200
0300
,
0002
0003
2002
3003
2000
3000
2000
3000
0002
0003
0202
0303
2000
3000
2000
3000
,
1001
0000
0000
0000
;

//---------------dance-single - ----------------
#NOTES:
     dance-single:
     :
     Medium:
     7:
     0.463,0.427,0.075,0.631,0.069,237.000,7.000,59.000,0.000,0.000:










0000
0100
0010
0100
0000
1000
0100
0010
,
0000
1000
0001
1000
0000
0100
0001
0100
,
0000
1000
0100
0010
0000
0100
0001
1000
,
0000
0001
0010
0100
0000
0100
0001
1000
,
0000
0000
1000
0000
0001
0000
1000
0000
0000
0000
0100
0000
0010
0100
0000
0000
,
0100
0010
0100
0010
0100
0001
0000
0000
,
1000
0001
1000
0001
1000
0100
0000
0000
,
0010
0000
1000
0000
0000
0100
0000
0000
1000
0000
0100
0000
0010
0000
0001
0000
,
0020
0200
0000
0330
0020
2000
0000
3030
,
0000
0001
1000
0001
1000
0010
0000
0000
,
0010
0001
0010
0001
0010
0100
0000
0000
,
0100
0000
1000
0000
0000
0100
0000
0000
1000
0000
0010
0000
1000
0000
0100
0000
,
0020
0100
0000
0100
0000
0130
0000
0110
,
0000
2002
0000
3003
2000
0020
0000
3030
,
0002
2000
0000
3003
0200
0020
0000
0330
,
0010
0100
0010
0100
1000
0001
1000
0001
,
1000
0000
1001
0000
0000
1001
0000
0000
2002
0000
0000
0000
0000
0000
3003
0000
,
0000
0010
0000
0010
0000
0100
1000
0100
,
1000
0000
0010
0000
0000
0110
0000
0000
0220
0000
0000
0000
0000
0000
0330
0000
,
0010
0000
0100
0000
0000
0100
0000
0000
0100
0000
0010
0000
0000
0010
0000
0000
,
0010
0100
0000
1000
0000
0001
0000
0010
,
0000
1000
0000
0001
0000
1000
0000
0100
,
0000
0010
0000
1000
0001
1000
0000
0100
,
0010
0100
0000
1000
0010
1000
0001
0000
,
0000
0001
0000
0010
0100
1000
0000
0010
,
0001
0000
0010
0000
0000
0100
0000
0000
0200
0000
0020
0000
0000
0000
0330
0000
,
0000
0000
0010
0000
0000
0010
0000
0000
0010
0000
0100
0000
0010
0000
0100
0000
,
0001
0000
0100
0000
0000
0000
0000
0000
0010
0000
1000
0000
0000
0010
0000
0000
,
1000
0010
0000
0100
0000
1000
0000
0001
,
0000
0000
2000
0000
0000
3002
0000
0000
2000
0000
0000
0000
0000
0000
0000
3003
,
0000
0010
0000
1000
0001
1000
0000
0100
,
0010
0100
0000
0001
0010
0001
1000
0000
,
0000
0100
0000
0100
0001
0100
0001
0100
,
0001
0000
1000
0000
0000
0100
0000
0000
0020
0000
0200
0000
0000
0000
0000
0330
,
0000
1000
0010
1000
0001
1000
0001
1000
,
0001
0000
0100
0000
0000
0010
0000
0000
0100
0000
0000
0000
0000
0000
0000
0000
,
0001
0010
0100
1000
0000
1000
0100
0010
,
0001
0100
0000
1000
0000
0002
0000
0023
,
0000
0230
0000
0000
0000
0000
0000
0300
,
0000
0002
0000
0023
0000
0230
0000
2300
,
0000
3002
0000
0203
0000
0320
0000
0230
,
0000
0302
0000
2003
0000
3200
0000
0320
,
0000
0032
0000
0203
0000
2300
0000
3002
,
0000
0203
0000
0320
0000
0230
0000
0320
,
0000
0230
0000
2300
0000
3002
0000
2003
,
0000
3020
0000
0230
0000
0302
0000
0203
,
0000
2300
0000
3002
0000
0203
0000
0302
,
0003
0000
0000
0000
;

//---------------dance-single - ----------------
#NOTES:
     dance-single:
     :
     Easy:
     4:
     0.273,0.226,0.000,0.203,0.000,160.000,0.000,19.000,0.000,0.000:








0000
0100
0000
0010
0000
0100
0000
0020
,
0030
1000
0000
0001
0000
1000
0000
0001
,
0000
0100
0000
0001
0000
0100
0000
0001
,
0000
1000
0000
0010
0000
1000
0000
0010
,
0000
1000
0000
0100
0000
0010
0000
0001
,
0000
0100
0000
0010
0000
0100
0000
0000
,
0000
1000
0000
0001
0000
1000
0000
0000
,
0000
0010
0000
0010
0000
0100
0000
0100
,
0000
1000
0000
1000
0000
0001
0000
0000
,
0000
0010
0000
0001
0000
0010
0000
0000
,
0000
1000
0000
0010
0000
1000
0000
0000
,
0000
1000
0000
1000
0000
1000
0000
1000
,
0000
0001
0000
0001
0000
0001
0000
0000
,
0000
0001
0000
0010
0000
0100
0000
1000
,
0000
0100
0000
0010
0000
0001
0000
0000
,
0000
1000
0000
0001
0000
0100
0000
0010
,
0000
1000
0000
0001
0000
0100
0000
0000
,
0000
1000
0000
0010
0000
1000
0000
0010
,
0000
1000
0000
0001
0000
1000
0000
0000
,
0000
0010
0000
0001
0000
0100
0000
0010
,
0000
0100
0000
1000
0000
0100
0000
0001
,
0000
1000
0000
0001
0000
1000
0000
0001
,
0000
1000
0000
0100
0000
1000
0000
0100
,
0000
0010
0000
0100
0000
0001
0000
0100
,
0000
0010
0000
0100
0000
1000
0000
0001
,
0000
1000
0000
0001
0000
0010
0000
0001
,
0000
0010
0000
0100
0000
0100
0000
0010
,
0000
0010
0000
1000
0000
0100
0000
1000
,
0000
0001
0000
0100
0000
0010
0000
0100
,
0000
1000
0000
0100
0000
1000
0000
0100
,
0000
0010
0000
0100
0000
0001
0000
0100
,
0000
0010
0000
0100
0000
1000
0000
0100
,
0000
0001
0000
0100
0000
1000
0000
0010
,
0000
0100
0000
1000
0000
0001
0000
0100
,
0000
0010
0000
0100
0000
1000
0000
0100
,
0000
0010
0000
0100
0000
0010
0000
0100
,
0000
1000
0000
0100
0000
1000
0000
0100
,
0000
0001
0000
0100
0000
0001
0000
2000
,
0000
0002
0000
0000
0000
0000
0000
3003
,
0000
0200
0000
0000
0000
0320
0000
0000
,
0000
2030
0000
0000
0000
3002
0000
0000
,
0000
2003
0000
0000
0000
3200
0000
0000
,
0000
0320
0000
0000
0000
0230
0000
0000
,
0000
0320
0000
0000
0000
0230
0000
0000
,
0000
2300
0000
0000
0000
3002
0000
0000
,
0000
2003
0000
0000
0000
3002
0000
0000
,
0000
2003
0000
0000
3000
0200
0000
0000
,
0300
0000
0000
0000
;
